#TITLE:Bury My Shell at Wounded Knee;
#SUBTITLE:TMNT Turtles In Time;
#ARTIST:Konami;
#TITLETRANSLIT:;
#SUBTITLETRANSLIT:;
#ARTISTTRANSLIT:;
#CREDIT:;
#BANNER:Bury My Shell At Wounded Knee.jpg;
#BACKGROUND:Bury My Shell At Wounded Knee-bg.jpg;
#LYRICSPATH:;
#CDTITLE:cdtitle.png;
#MUSIC:Bury My Shell At Wounded Knee.mp3;
#OFFSET:1.330;
#SAMPLESTART:38.520;
#SAMPLELENGTH:12.000;
#SELECTABLE:YES;
#BPMS:0.000=151.340;
#STOPS:;
#BGCHANGES:;
// cache tags:
#FIRSTBEAT:4.000;
#LASTBEAT:256.000;
#SONGFILENAME:Songs/Music V.I.P ^_^/Bury My Shell At Wounded Knee (Zaghurim)/Bury My Shell At Wounded Knee.sm;
#HASMUSIC:1;
#HASBANNER:1;
#MUSICLENGTH:103.235;
// end cache tags

//---------------dance-single - ----------------
#NOTES:
     dance-single:
     :
     Hard:
     12:
     1.000,1.000,1.000,0.058,1.000,737.000,225.000,6.000,0.000,4.000:

0000
0000
0000
0000
,
1001
0000
0100
0010
0100
0000
0100
0010
1001
0000
0100
0010
0100
0000
0100
0010
,
1001
0000
0100
0010
0100
0000
0100
0010
1001
0000
0100
0010
0100
0000
0100
0010
,
1001
0000
0100
0010
0100
0000
0100
0010
1001
0000
0100
0010
0100
0000
0100
0010
,
1001
0000
0100
0010
0100
0000
0100
0010
0001
0010
0100
0010
1001
0000
0100
0000
,
1001
0000
0100
0010
1001
0000
0100
0010
1001
0000
0100
0010
1001
0000
0100
0010
,
1001
0000
0100
0010
1001
0000
0100
0010
1001
0000
0100
0010
1001
0000
0001
0010
,
1100
0000
0001
0010
1100
0000
0001
0010
1100
0000
0001
0010
1100
0000
0010
0100
,
0011
0000
0010
0100
0011
0000
0010
0100
0011
0011
0011
0100
0011
0100
0011
0100
,
1001
0000
0100
1000
0101
0000
0100
1000
0101
0000
0100
1000
0101
0000
0100
1000
,
0101
0000
0100
1000
0101
0000
0100
1000
0101
0000
0100
1000
0101
0000
0100
1000
,
0011
0000
1000
0100
0011
0000
1000
0100
0011
0011
0011
0011
0000
0000
0010
0100
,
0011
0000
0010
0100
0011
0000
0010
0100
0011
0000
0011
0000
0000
1000
0100
0010
,
1001
0000
0100
0010
1001
0000
0100
0010
1100
0000
0100
0010
1001
0000
0100
0010
,
1100
0000
0100
0010
1001
0000
0100
0010
1100
0000
0100
0010
1001
0000
0100
0010
,
0101
0000
0010
1000
0101
0000
0010
0100
0011
0000
0010
1000
0101
0000
0010
0100
,
0011
0000
0010
1000
0101
0000
0010
0100
0011
0011
1100
0001
1010
0001
1100
0001
,
1100
0000
0001
1000
0110
0000
0001
1000
0101
0000
0001
1000
0110
0000
0001
1000
,
0101
0000
0001
1000
0110
0000
0001
1000
0101
0000
0001
1000
0110
0000
0001
1000
,
0011
0000
1000
0100
0011
0000
1000
0001
1010
0000
1000
0100
0011
0000
1000
0001
,
1010
0000
1000
0100
0011
0000
1000
0100
0010
1000
0010
0100
0010
1000
0010
0100
,
0011
0000
1000
1000
0100
0010
0001
0010
1100
0000
0110
0000
0011
0010
0010
0010
,
1001
0000
1000
1000
0100
0010
0001
0010
1100
0000
0110
0000
0012
0000
0000
0000
,
0113
0000
0010
0100
0011
0000
1000
0001
0110
0000
0001
0100
0010
1000
0010
0100
,
0011
0000
0001
0010
1100
0000
1000
0100
0011
0000
0010
0100
0010
0100
0010
0100
,
0011
0000
1000
1000
0100
0010
0001
0010
1100
0000
0110
0000
0011
0010
0010
0010
,
1001
0000
0001
0001
0010
0100
1000
0100
0011
0000
0110
0000
2100
0000
0000
0000
,
3110
0000
0100
0010
1100
0000
0001
1000
0110
0000
1000
0010
0100
0001
0100
0010
,
1100
0000
1000
0100
0011
0000
1000
0100
0011
0011
0011
0100
0010
0100
0010
0100
,
1001
0000
0100
0010
0100
0000
0100
0010
1001
0000
0100
0010
0100
0000
0100
0010
,
1001
0000
0100
0010
0100
0000
0100
0010
1001
0000
0100
0010
0100
0000
0100
0010
,
1001
0000
0100
0010
0100
0000
0100
0010
1001
0000
0100
0010
0100
0000
0100
0010
,
1001
0000
0100
0010
0100
0000
0100
0010
0001
0010
0100
0010
1001
0000
0100
0000
,
1001
0000
0100
0010
1001
0000
0100
0010
1001
0000
0100
0010
1001
0000
0100
0010
,
1001
0000
0100
0010
1001
0000
0100
0010
1001
0000
0100
0010
1001
0000
0001
0010
,
1100
0000
0001
0010
1100
0000
0001
0010
1100
0000
0001
0010
1100
0000
0010
0100
,
0011
0000
0010
0100
0011
0000
0010
0100
0011
0011
0011
0100
0011
0100
0011
0100
,
1001
0000
0100
1000
0101
0000
0100
1000
0101
0000
0100
1000
0101
0000
0100
1000
,
0101
0000
0100
1000
0101
0000
0100
1000
0101
0000
0100
1000
0101
0000
0100
1000
,
0011
0000
1000
0100
0011
0000
1000
0100
0011
0011
0011
0011
0000
0000
0010
0100
,
0011
0000
0010
0100
0011
0000
0010
0100
0011
0000
0011
0000
0000
1000
0001
1000
,
0011
0000
0001
1000
0110
0000
0001
1000
0101
0000
0001
1000
0110
0000
0001
1000
,
0101
0000
0001
1000
0110
0000
0001
1000
0101
0000
0001
1000
0110
0000
0001
1000
,
0011
0000
1000
0100
0011
0000
1000
0001
1010
0000
1000
0100
0011
0000
1000
0001
,
1010
0000
1000
0100
0011
0000
1000
0100
0011
0011
1100
0001
1100
0001
1100
0001
,
1100
0000
0001
1000
0110
0000
0001
1000
0101
0000
0001
1000
0110
0000
0001
1000
,
0101
0000
0001
1000
0110
0000
0001
1000
0101
0000
0001
1000
0110
0000
0001
1000
,
0011
0000
1000
0100
0011
0000
1000
0001
1010
0000
1000
0100
0011
0000
1000
0001
,
1010
0000
1000
0100
0011
0000
1000
0100
0010
1000
0010
0100
0010
1000
0010
0100
,
0011
0000
1000
1000
0100
0010
0001
0010
1100
0000
0110
0000
0011
0010
0010
0010
,
1001
0000
1000
1000
0100
0010
0001
0010
1100
0000
0110
0000
0012
0000
0000
0000
,
0113
0000
0010
0100
0011
0000
1000
0001
0110
0000
0001
0100
0010
1000
0010
0100
,
0011
0000
0001
0010
1100
0000
1000
0100
0011
0000
0010
0100
0010
0100
0010
0100
,
0011
0000
1000
1000
0100
0010
0001
0010
1100
0000
0110
0000
0011
0010
0010
0010
,
1001
0000
0001
0001
0010
0100
1000
0100
0011
0000
0110
0000
2100
0000
0000
0000
,
3110
0000
0100
0010
1100
0000
0001
1000
0110
0000
1000
0010
0100
0001
0100
0010
,
1100
0000
1000
0100
0011
0000
1000
0100
0011
0011
0011
0100
0010
0100
0010
0100
,
1001
0000
0100
0010
0100
0000
0100
0010
1001
0000
0100
0010
0100
0000
0100
0010
,
1001
0000
0100
0010
0100
0000
0100
0010
1001
0000
0100
0010
0100
0000
0100
0010
,
1001
0000
0100
0010
0100
0000
0100
0010
1001
0000
0100
0010
0100
0000
0100
0010
,
1001
0000
0100
0010
0100
0000
0100
0010
0001
0010
0100
0010
1001
0000
0100
0000
,
2002
0000
0000
0000
,
0000
0000
0000
0000
,
0000
0000
0000
0000
,
3003
0000
0000
0000
;

//---------------dance-single - ----------------
#NOTES:
     dance-single:
     :
     Challenge:
     15:
     1.000,1.000,1.000,0.058,1.000,757.000,240.000,6.000,0.000,18.000:


0000
0000
0000
0000
,
1001
0000
0100
0010
0100
0000
0100
0010
1001
0000
0100
0010
0100
0000
0100
0010
,
1001
0000
0100
0010
0100
0000
0100
0010
1001
0000
0100
0010
0100
0000
0100
0010
,
1001
0000
0100
0010
0100
0000
0100
0010
1001
0000
0100
0010
0100
0000
0100
0010
,
1001
0000
0100
0010
0100
0000
0100
0010
1001
0010
0010
0010
1001
0000
0100
0000
,
1001
0000
0001
0001
1001
0000
0001
0001
1001
0000
0001
0001
1001
0000
0001
0001
,
1001
0000
0001
0001
1001
0000
0001
0001
1001
0000
0001
0001
1001
0000
0010
0010
,
1100
0000
0010
0010
1100
0000
0010
0010
1100
0000
0010
0010
1100
0000
0010
0010
,
0011
0000
0010
0010
0011
0000
0010
0010
0111
1011
1011
1000
1011
1000
1011
1000
,
1011
0000
0100
0100
0101
0000
0100
0100
0101
0000
0100
0100
0101
0000
0100
0100
,
0101
0000
0100
0100
0101
0000
0100
0100
0101
0000
0100
0100
0101
0000
1000
1000
,
0011
0000
1000
1000
0011
0000
1000
1000
0011
0011
0011
0011
0000
0000
0100
0100
,
0011
0000
0100
0100
0011
0000
0100
0100
0011
0000
0011
0000
0000
1000
0100
0010
,
1001
0000
0010
0010
1001
0000
0010
0010
1100
0000
0010
0010
1001
0000
0010
0010
,
1100
0000
0010
0010
1001
0000
0010
0010
1100
0000
0010
0010
1001
0000
0010
0010
,
0101
0000
0010
0010
0101
0000
0010
0010
0011
0000
0010
0010
0101
0000
0010
0010
,
0011
0000
0010
0010
0101
0000
0010
0010
0011
0011
0011
1000
1011
1000
1011
1000
,
0011
0000
0001
1000
0110
0000
0001
0001
0101
0000
1000
1000
0110
0000
0001
0001
,
0101
0000
1000
1000
0110
0000
0001
0001
0101
0000
1000
1000
0110
0000
0001
0001
,
0011
0000
1000
1000
0011
0000
0001
0001
1010
0000
1000
1000
0011
0000
0001
0001
,
1010
0000
1000
1000
0011
0000
1000
0100
0010
0010
0010
0010
0010
0010
0010
0010
,
0011
0000
1000
1000
1100
0010
0001
0010
1100
0100
0110
0010
0011
0001
0001
0001
,
1001
0000
1000
1000
1100
0010
0001
0010
1100
0100
0110
0010
0012
0000
0000
0003
,
0110
0101
1010
1000
0110
0000
1000
1000
0110
0000
1000
1000
1000
1000
1000
1000
,
0011
0000
0001
0001
1100
0000
0001
0001
0011
0000
0010
0010
0010
0010
0010
0010
,
0011
0000
1000
1000
0100
0010
0001
0010
1100
0100
0110
0010
0011
0001
0001
0001
,
1001
0000
0001
0001
0010
0100
1000
0100
0011
0010
0110
0100
2100
0000
0000
0000
,
3101
0110
0101
0001
1100
0000
0001
0001
0110
0000
0001
0001
0001
0001
0001
0001
,
1100
0000
0001
0001
0011
0000
0001
0001
0011
0011
0011
0100
0010
0100
0010
0100
,
1001
0000
0100
0010
0100
0000
0100
0010
1001
0000
0100
0010
0100
0000
0100
0010
,
1001
0000
0100
0010
0100
0000
0100
0010
1001
0000
0100
0010
0100
0000
0100
0010
,
1001
0000
0100
0010
0100
0000
0100
0010
1001
0000
0100
0010
0100
0000
0100
0010
,
1001
0000
0100
0010
0100
0000
0100
0010
1001
0010
0010
0010
1001
0000
0100
0000
,
1001
0000
0001
0001
1001
0000
0001
0001
1001
0000
0001
0001
1001
0000
0001
0001
,
1001
0000
0001
0001
1001
0000
0001
0001
1001
0000
0001
0001
1001
0000
0010
0010
,
1100
0000
0010
0010
1100
0000
0010
0010
1100
0000
0010
0010
1100
0000
0010
0010
,
0011
0000
0010
0010
0011
0000
0010
0010
0111
1011
1011
1000
1011
1000
1011
1000
,
1011
0000
0100
0100
0101
0000
0100
0100
0101
0000
0100
0100
0101
0000
0100
0100
,
0101
0000
0100
0100
0101
0000
0100
0100
0101
0000
0100
0100
0101
0000
1000
1000
,
0011
0000
1000
1000
0011
0000
1000
1000
0011
0011
0011
0011
0000
0000
0100
0100
,
0011
0000
0100
0100
0011
0000
0100
0100
0011
0000
0011
0000
0000
1000
0100
0010
,
1001
0000
0010
0010
1001
0000
0010
0010
1100
0000
0010
0010
1001
0000
0010
0010
,
1100
0000
0010
0010
1001
0000
0010
0010
1100
0000
0010
0010
1001
0000
0010
0010
,
0101
0000
0010
0010
0101
0000
0010
0010
0011
0000
0010
0010
0101
0000
0010
0010
,
0011
0000
0010
0010
0101
0000
0010
0010
0011
0011
0011
1000
1011
1000
1011
1000
,
0011
0000
0001
1000
0110
0000
0001
0001
0101
0000
1000
1000
0110
0000
0001
0001
,
0101
0000
1000
1000
0110
0000
0001
0001
0101
0000
1000
1000
0110
0000
0001
0001
,
0011
0000
1000
1000
0011
0000
0001
0001
1010
0000
1000
1000
0011
0000
0001
0001
,
1010
0000
1000
1000
0011
0000
1000
0100
0010
0010
0010
0010
0010
0010
0010
0010
,
0011
0000
1000
1000
1100
0010
0001
0010
1100
0100
0110
0010
0011
0001
0001
0001
,
1001
0000
1000
1000
1100
0010
0001
0010
1100
0100
0110
0010
0012
0000
0000
0003
,
0110
0101
1010
1000
0110
0000
1000
1000
0110
0000
1000
1000
1000
1000
1000
1000
,
0011
0000
0001
0001
1100
0000
0001
0001
0011
0000
0010
0010
0010
0010
0010
0010
,
0011
0000
1000
1000
0100
0010
0001
0010
1100
0100
0110
0010
0011
0001
0001
0001
,
1001
0000
0001
0001
0010
0100
1000
0100
0011
0010
0110
0100
2100
0000
0000
0000
,
3101
0110
0101
0001
1100
0000
0001
0001
0110
0000
0001
0001
0001
0001
0001
0001
,
1100
0000
0001
0001
0011
0000
0001
0001
0011
0011
0011
0100
0010
0100
0010
0100
,
1001
0000
0100
0010
0100
0000
0100
0010
1001
0000
0100
0010
0100
0000
0100
0010
,
1001
0000
0100
0010
0100
0000
0100
0010
1001
0000
0100
0010
0100
0000
0100
0010
,
1001
0000
0100
0010
0100
0000
0100
0010
1001
0000
0100
0010
0100
0000
0100
0010
,
1001
0000
0100
0010
0100
0000
0100
0010
1001
0010
0010
0010
1001
0000
0100
0000
,
2002
0000
0000
0000
,
0000
0000
0000
0000
,
0000
0000
0000
0000
,
3003
0000
0000
0000
;
